<svg xmlns="http://www.w3.org/2000/svg">
<defs>
<font
       id="FontID0"
       horiz-adv-x="688"
       font-variant="normal"
       font-style="normal"
       font-weight="400,700"
       horiz-origin-x="0"
       horiz-origin-y="0"
       vert-origin-x="45"
       vert-origin-y="90"
       vert-adv-y="90"
       style="font-style:normal;font-variant:normal"><font-face
         font-family="Elektra Text Pro"
         id="font-face7" /><missing-glyph
         id="missing-glyph9"><path
           d="M0 0z"
           id="path11" /></missing-glyph><glyph
         unicode="w"
         horiz-adv-x="838"
         id="glyph13"><path
           d="M417.996 296.997c19.0119,-73.0027 50.0133,-212.005 67.008,-296.997l183.991 0c65.9993,161.002 128.002,349.008 175.998,512.009l-153.998 0c-26.9859,-118.011 -64.9907,-235.013 -104.994,-352.015 -21.9998,97.0007 -65.9993,261.009 -95.0025,352.015l-139.002 0c-20.9911,-87.0095 -68.9872,-260.001 -99.9886,-352.015 -30.0118,122.007 -67.008,244.015 -107.011,352.015l-157.005 0c59.015,-162.01 114.014,-332.014 163,-512.009l184.01 0c25.0067,75.001 64.0011,207 82.9939,296.997z"
           id="path15" /></glyph><glyph
         unicode="D"
         horiz-adv-x="752"
         id="glyph17"><path
           d="M82.0043 697.008l0 -697.008 291.002 0c222.986,0 330.986,80.9957 330.986,351.996 0,272.009 -108.001,345.012 -330.986,345.012l-291.002 0zm449.987 -347.01c0,-179.995 -36.9962,-207.989 -177.996,-207.989l-110.988 0 0 413.999 110.988 0c141,0 177.996,-20.0015 177.996,-206.01z"
           id="path19" /></glyph><glyph
         unicode="f"
         horiz-adv-x="365"
         id="glyph21"><path
           d="M189.998 543.991c0,78.0056 37.0019,94.0126 90.0108,94.0126 29.9846,0 69.9831,-5.00692 94.9988,-13.0104l22.0001 77.0004c-33.0002,11.0001 -76.0142,19.0035 -116.013,19.0035 -97.9953,0 -184.991,-19.9898 -184.991,-173.991l0 -39.9985 -86.9953 0 0 -83.9987 86.9953 0 0 -423.009 93.9936 0 0 423.009 173.004 0 0 83.9987 -173.004 0 0 36.9829z"
           id="path23" /></glyph><glyph
         unicode="U"
         horiz-adv-x="740"
         id="glyph25"><path
           d="M554.991 697.005l0 -460.997c0,-129.004 -58.9831,-158.003 -184.991,-158.003 -129.004,0 -184.004,30.9898 -184.004,158.003l0 460.997 -103.002 0 0 -471.011c0,-196.996 105.999,-239.991 287.007,-239.991 181.994,0 287.007,42.995 287.007,239.991l0 471.011 -102.016 0z"
           id="path27" /></glyph><glyph
         unicode="р"
         horiz-adv-x="595"
         id="glyph29"><path
           d="M217.89 387.098c17.9101,7.06171 50.9671,12.213 77.9518,12.3495 72.9369,0.443489 97.1241,-21.5263 97.7723,-145.396 0.579947,-108.075 -22.3109,-140.177 -95.282,-140.416 -44.9971,-0.307031 -79.1117,15.488 -79.1458,38.4812l-1.29635 234.981zm-150.889 -578.753l153.925 0.784635 -1.02344 200.969c28.0081,-11.7695 62.0203,-22.618 112.1,-22.345 126.94,0.682291 216.593,64.033 215.468,271.108 -1.05755,208.849 -78.2588,269.471 -252.209,268.584 -80.0327,-0.341146 -176.884,-15.9656 -231.911,-37.1849l3.65026 -681.916z"
           id="path31" /></glyph><glyph
         unicode="č"
         horiz-adv-x="467"
         id="glyph33"><path
           d="M430.007 96.0039c-34.0053,-13.9966 -77.0004,-24.9967 -121.001,-24.9967 -103.002,0 -152.009,33.9864 -152.009,182.999 0,156.997 49.0072,181.994 152.009,181.994 41.9899,0 86.9953,-8.00349 121.001,-23.0053l24.9967 83.9987c-38.0071,13.9966 -104.007,24.0105 -149.999,24.0105 -155.006,0 -248.013,-57.9969 -248.013,-265.007 0,-207.996 92.0022,-269.994 248.013,-269.994 45.9916,0 110.987,9.99488 149.999,26.9881l-24.9967 83.0125zm-310.012 601.001l126.008 -129.004 96.9902 0 122.006 129.004 -96.0039 0 -74.0038 -81.0021 -75.9952 81.0021 -99.0005 0z"
           id="path35" /></glyph><glyph
         unicode="c"
         horiz-adv-x="467"
         id="glyph37"><path
           d="M430.007 96.0039c-34.0053,-13.9966 -77.0004,-24.9967 -121.001,-24.9967 -103.002,0 -152.009,33.9864 -152.009,182.999 0,156.997 49.0072,181.994 152.009,181.994 41.9899,0 86.9953,-8.00349 121.001,-23.0053l24.9967 83.9987c-38.0071,13.9966 -104.007,24.0105 -149.999,24.0105 -155.006,0 -248.013,-57.9969 -248.013,-265.007 0,-207.996 92.0022,-269.994 248.013,-269.994 45.9916,0 110.987,9.99488 149.999,26.9881l-24.9967 83.0125z"
           id="path39" /></glyph><glyph
         unicode="t"
         horiz-adv-x="426"
         id="glyph41"><path
           d="M404.992 379.995l0 132.001 -159.994 0 0 138.013 -154.001 -62.0176 0 -75.9952 -82.9935 0 0 -132.001 82.9935 0 0 -206.991c0,-152.996 63.0038,-187.001 176.001,-187.001 55.0003,0 115.994,9.99488 154.001,26.0019l-24.9967 118.004c-24.0105,-8.00349 -49.9934,-14.0156 -82.0073,-14.0156 -53.9951,0 -68.9969,21.0139 -68.9969,72.9987l0 191.003 159.994 0z"
           id="path43" /></glyph><glyph
         unicode="Л"
         horiz-adv-x="720"
         id="glyph45"><path
           d="M526.008 610.003l0 -610.003 100.985 0 0 696.992 -449.986 0c-11.0021,-253.986 -73.0104,-489.99 -141.007,-696.992l108.993 0c67.0045,191.996 113.015,423.995 126.001,610.003l255.014 0z"
           id="path47" /></glyph><glyph
         unicode="н"
         horiz-adv-x="603"
         id="glyph49"><path
           d="M384.062 198.99l-1.19401 -201.003 153.072 -0.716406 2.66094 510.865 -153.004 0.852864 -0.852864 -179.101 -163.989 0.852864 0.852864 179.136 -152.901 0.648177 -2.66094 -510.831 152.833 -0.852864 1.15989 201.037 164.023 -0.886978z"
           id="path51" /></glyph><glyph
         unicode="к"
         horiz-adv-x="587"
         id="glyph53"><path
           d="M583.939 -1.05755c-90.6083,220.073 -136.492,257.258 -186.504,277.385 25.006,20.844 90.1307,101.798 177.396,234.538l-176.986 0.409375c-73.1416,-106.744 -140.313,-199.809 -177.362,-245.591l0.37526 245.966 -153.959 0.272916 -0.886978 -512.094 153.959 -0.272916 0.409375 231.058c61.952,-16.068 113.874,-58.1653 187.562,-231.263l175.997 -0.409375z"
           id="path55" /></glyph><glyph
         unicode="L"
         horiz-adv-x="547"
         id="glyph57"><path
           d="M94.9988 697.005l0 -697.005 445.995 0 0 89.0056 -345.004 0 0 608 -100.992 0z"
           id="path59" /></glyph><glyph
         unicode="n"
         horiz-adv-x="596"
         id="glyph61"><path
           d="M220.001 379.995c24.9967,6.0121 48.002,9.00867 72.9987,9.00867 75.009,0 89.9918,-24.9967 89.9918,-118.004l0 -271 154.001 0 0 283.005c0,184.004 -69.9831,242.987 -210.992,242.987 -92.0022,0 -193.999,-22.0001 -260,-45.9916l0 -480.001 154.001 0 0 379.995z"
           id="path63" /></glyph><glyph
         unicode="з"
         horiz-adv-x="524"
         id="glyph65"><path
           d="M153.001 209.996l79.9908 0c60.0064,0 87.0066,-9.00007 87.0066,-45.9925 0,-37.0101 -16.9903,-49.0043 -96.9988,-49.0043 -60.9985,0 -128.003,11.9942 -166.005,26.0081l-29.9943 -136.011c58.0044,-11.0021 119.995,-18.9923 200.004,-18.9923 187.992,0 255.988,31.9963 255.988,148.997 0,81.0006 -31.9963,128.995 -131.989,133.991 95.9889,7.0158 119.995,48.0122 119.995,123.007 0,103.997 -54.0004,134.009 -243.994,134.009 -84.0125,0 -139.997,-8.00794 -197.009,-20.0021l29.0022 -130.997c42.9984,12.9863 96.0067,22.9962 164.995,22.9962 71.0084,0 86.0145,-11.0021 86.0145,-40.0043 0,-29.0022 -19.01,-36.9924 -77.0144,-36.9924l-79.9908 0 0 -111.013z"
           id="path67" /></glyph><glyph
         unicode="Е"
         horiz-adv-x="625"
         id="glyph69"><path
           d="M83.1713 696.722l-1.15989 -696.79 519.769 -0.921093 0.37526 140.859 -358.919 0.716406 0.204687 151.878 256.883 -0.341146 0.238802 137.857 -256.883 0.511718 0.170573 124.859 358.885 -0.579947 0.37526 141.03 -519.94 0.921093z"
           id="path71" /></glyph><glyph
         unicode="k"
         horiz-adv-x="587"
         id="glyph73"><path
           d="M588.996 0c-96.0039,170.008 -166.992,264.001 -191.003,280.008 25.0156,20.9949 89.0056,99.0005 176.001,231.987l-176.987 0c-91.016,-136.989 -152.009,-217.991 -177.006,-240.996l0 451.002 -154.001 0 0 -722.002 154.001 0 0 271c23.0053,-12.0052 85.0039,-101.997 191.003,-271l177.992 0z"
           id="path75" /></glyph><glyph
         unicode="У"
         horiz-adv-x="585"
         id="glyph77"><path
           d="M299.996 283.006c-49.9965,138.987 -128.003,301.998 -191.003,413.986l-118.985 0c83.9948,-137.995 202.998,-393.983 245.996,-523.988 -31.9963,-56.9945 -76.9967,-125.009 -112.997,-173.003l124.991 0c114.999,182.996 256.006,464.992 346.999,696.992l-112.005 0c-39.9865,-117.993 -113.989,-275.99 -182.996,-413.986z"
           id="path79" /></glyph><glyph
         unicode="д"
         horiz-adv-x="682"
         id="glyph81"><path
           d="M162.993 511.994c-6.99809,-122.989 -31.9963,-253.986 -64.9848,-379.987l-96.0067 0 33.9983 -280.012 126.001 0 0 148.005 358.993 0 0 -148.005 125.009 0 33.9983 280.012 -101.003 0 0 379.987 -416.005 0zm263.004 -131.989l0 -247.998 -167.99 0c22.9962,86.9889 38.9944,176.99 43.9905,247.998l123.999 0z"
           id="path83" /></glyph><glyph
         unicode="х"
         horiz-adv-x="520"
         id="glyph85"><path
           d="M528.912 0.989322c-43.0867,67.8197 -109.303,164.637 -175.485,258.622 66.8986,94.1221 133.797,190.223 173.575,252.175l-166.991 -0.238802c-20.8781,-33.0229 -50.7966,-82.0796 -88.732,-135.128 -36.9802,51.9565 -73.1075,101.798 -100.297,134.752l-175.861 -0.204687c48.1015,-57.9265 122.232,-155.869 193.395,-255.723 -73.858,-101.013 -149.695,-202.163 -194.521,-255.177l166.991 0.238802c27.9739,33.9781 64.8518,83.1372 106.676,140.108 37.1508,-52.8776 70.2419,-101.832 92.2458,-139.801l169.004 0.37526z"
           id="path87" /></glyph><glyph
         unicode="F"
         horiz-adv-x="576"
         id="glyph89"><path
           d="M95.0025 697.008l0 -697.008 100.997 0 0 291.002 276.995 0 0 86.0008 -276.995 0 0 232.996 381 0 0 87.0095 -481.997 0z"
           id="path91" /></glyph><glyph
         unicode="y"
         horiz-adv-x="509"
         id="glyph93"><path
           d="M194.991 -23.998c-24.9876,-54.9994 -55.989,-120.009 -81.9853,-168.005l106.992 0c27.0049,51.0029 60.0046,122.007 85.0112,182.012 71.9941,169.984 138.983,344.993 189.986,516.995l-97.9903 0c-36.0065,-135.995 -87.9991,-280.002 -142.999,-417.006 -39.0134,141 -91.006,300.004 -141,417.006l-100.997 0c64.9907,-144.997 132.988,-351.007 182.983,-531.001z"
           id="path95" /></glyph><glyph
         unicode="h"
         horiz-adv-x="568"
         id="glyph97"><path
           d="M309.993 521.004c-57.9969,0 -114.002,-19.0035 -143.001,-38.0071l0 239.005 -94.9988 0 0 -722.002 94.9988 0 0 375.993c0,38.0071 57.0106,58.0158 119.009,58.0158 100.992,0 116.999,-57.0106 116.999,-157.016l0 -276.993 94.9988 0 0 288.998c0,187.001 -60.0072,232.006 -188.006,232.006z"
           id="path99" /></glyph><glyph
         unicode="т"
         horiz-adv-x="486"
         id="glyph101"><path
           d="M317.231 382.117l163.989 1.12578 -0.955208 131.989 -481.936 -3.37734 0.955208 -131.989 165.08 1.12578 2.59271 -379.831 152.97 0.989322 -2.69505 379.968z"
           id="path103" /></glyph><glyph
         unicode="v"
         horiz-adv-x="510"
         id="glyph105"><path
           d="M254.006 93.0074c-39.9985,140.99 -90.997,293.986 -141.009,414l-100.992 0c64.9952,-147.002 125.002,-334.003 174.996,-507.008l122.992 0c69.0159,166.992 135.016,339.997 185.01,507.008l-97.9953 0c-37.0019,-137.008 -89.0056,-277.012 -143.001,-414z"
           id="path107" /></glyph><glyph
         unicode="e"
         horiz-adv-x="555"
         id="glyph109"><path
           d="M459.006 130.996c-38.0071,-9.99488 -105.013,-16.9932 -142.015,-16.9932 -73.9849,0 -110.987,15.0018 -112.997,96.9902l313.009 0c13.9966,263.015 -60.0072,315 -229.996,315 -147.002,0 -241.015,-60.9934 -241.015,-266.998 0,-209.987 107.004,-272.991 251.01,-272.991 57.9969,0 133.992,11.0001 184.991,27.9932l-22.9863 116.999zm-160.999 279.003c59.9882,0 82.9935,-15.0018 84.9849,-85.9901l-177.992 0c9.00867,64.9952 28.9984,85.9901 93.0074,85.9901z"
           id="path111" /></glyph><glyph
         unicode="s"
         horiz-adv-x="496"
         id="glyph113"><path
           d="M430.004 494.995c-54.0098,16.005 -118.011,25.9963 -168.995,25.9963 -130,0 -209.017,-36.9962 -209.017,-163 0,-98.999 64.0011,-130 181.003,-139.992 93.0042,-7.993 117.002,-29.0032 117.002,-73.9923 0,-67.008 -38.0048,-78.0078 -111.997,-78.0078 -51.9925,0 -120.999,12.0085 -157.005,27.0049l-22.9894 -80.0061c48.9857,-16.9946 130,-27.0049 181.993,-27.0049 131.999,0 206.01,38.0048 206.01,164.998 0,97.0007 -55.0185,137.004 -182.012,148.004 -86.9904,8.01203 -115.004,25.0067 -115.004,67.008 0,65.9993 37.0152,75.001 109.999,75.001 50.0133,0 106.002,-10.9999 147.014,-25.9963l23.998 79.9871z"
           id="path115" /></glyph><glyph
         unicode="К"
         horiz-adv-x="686"
         id="glyph117"><path
           d="M698.994 0c-100.985,303.008 -171.993,355.999 -245.996,383.991 31.0042,29.0022 112.005,133.017 227.996,313l-191.996 0c-88.9909,-143.983 -189.994,-271.986 -245.996,-333.995l0 333.995 -161.009 0 0 -696.992 161.009 0 0 324.995c110.003,-11.9942 175.997,-68.9887 265.006,-324.995l190.986 0z"
           id="path119" /></glyph><glyph
         unicode="p"
         horiz-adv-x="595"
         id="glyph121"><path
           d="M219.998 386.005c18.0033,7.00339 51.0029,11.9895 78.0078,11.9895 73.0027,0 97.0007,-21.9998 97.0007,-145.986 0,-108.001 -23.0084,-140.011 -96.0111,-140.011 -44.9892,0 -78.9974,16.005 -78.9974,38.9944l0 235.013zm-153.998 -578.008l153.998 0 0 201.005c27.9945,-12.0085 62.0028,-23.0084 111.997,-23.0084 127.013,0 217.01,63.0115 217.01,270.011 0,208.998 -76.9992,269.992 -250.999,269.992 -80.0061,0 -177.007,-14.9964 -232.006,-35.9875l0 -682.012z"
           id="path123" /></glyph><glyph
         unicode="m"
         horiz-adv-x="890"
         id="glyph125"><path
           d="M219.998 379.991c20.0015,6.01378 45.0082,9.00164 67.008,9.00164 69.9958,0 84.9922,-24.9876 84.9922,-117.992l0 -271.001 153.009 0 0 283.009c0,37.9858 -4.01553,69.9958 -10.0103,96.9817 25.0067,6.01378 58.0063,9.00164 76.9992,9.00164 69.9958,0 85.0112,-24.9876 85.0112,-117.992l0 -271.001 152.99 0 0 283.009c0,183.991 -62.9924,242.987 -205.001,242.987 -57.9873,0 -122.997,-13.9877 -176.988,-32.9997 -31.0014,23.0084 -74.0113,32.9997 -128.002,32.9997 -92.0146,0 -188.007,-21.9998 -254.006,-45.9978l0 -479.998 153.998 0 0 379.991z"
           id="path127" /></glyph><glyph
         unicode="K"
         horiz-adv-x="683"
         id="glyph129"><path
           d="M243.006 697.005l-160.999 0 0 -697.005 160.999 0 0 697.005zm456.995 -697.005c-125.002,231.001 -225.008,353.993 -254.993,376.999 30.9898,28.9984 119.995,140.004 235.989,320.007l-191.989 0c-110.001,-180.003 -207.01,-298.007 -245.017,-328.997 37.0019,-16.007 136.002,-137.008 262.01,-368.009l193.999 0z"
           id="path131" /></glyph><glyph
         unicode="ј"
         horiz-adv-x="238"
         id="glyph133"><path
           d="M121.005 709.004c-42.9984,0 -57.0123,-6.00595 -57.0123,-49.9965 0,-48.0122 14.0139,-56.0024 57.0123,-56.0024 41.9885,0 56.0024,7.99022 56.0024,56.0024 0,43.9905 -14.0139,49.9965 -56.0024,49.9965zm45.9925 -202.006l-94.0047 0 0 -527.992c0,-84.0125 -31.9963,-101.003 -92.9948,-101.003l0 -81.0006c117.001,0 187,33.9983 187,184.005l0 525.99z"
           id="path135" /></glyph><glyph
         unicode="ч"
         horiz-adv-x="571"
         id="glyph137"><path
           d="M31.3172 377.171c1.36458,-193.02 72.6981,-227.51 182.683,-226.657 45.9864,0.307031 99.8192,15.6586 135.674,32.9888l1.33047 -181.012 153.823 1.02344 -3.47968 511.991 -154.027 -1.15989 1.33047 -194.999c0.170573,-21.0146 -35.6497,-32.17 -75.6661,-32.5112 -51.0013,-0.341146 -87.1627,15.488 -87.6403,101.32l-1.02344 124.996 -153.823 -0.989322 0.818749 -134.991z"
           id="path139" /></glyph><glyph
         unicode="j"
         horiz-adv-x="239"
         id="glyph141"><path
           d="M121.001 708.992c-42.995,0 -56.9917,-5.99313 -56.9917,-49.9934 0,-48.002 13.9966,-56.0055 56.9917,-56.0055 42.0088,0 56.0055,8.00349 56.0055,56.0055 0,44.0002 -13.9966,49.9934 -56.0055,49.9934zm45.9916 -201.984l-93.9936 0 0 -528.003c0,-83.9987 -31.995,-101.011 -93.0074,-101.011l0 -81.0021c117.018,0 187.001,34.0053 187.001,184.004l0 526.011z"
           id="path143" /></glyph><glyph
         unicode="Б"
         horiz-adv-x="700"
         id="glyph145"><path
           d="M196 85.9967l0 242.01 243.002 0c60.0064,0 87.0066,-50.0142 87.0066,-125.009 0,-72.0006 -22.0041,-117.001 -83.0026,-117.001l-247.006 0zm371.997 610.995l-473 0 0 -696.992 362.997 0c112.005,0 177.007,60.9985 177.007,202.006 0,128.995 -45.9925,208.986 -184.998,208.986l-254.004 0 0 199.011 371.997 0 0 86.9889z"
           id="path147" /></glyph><glyph
         unicode="г"
         horiz-adv-x="436"
         id="glyph149"><path
           d="M220.006 380.005l216.002 0 0 131.989 -370.013 0 0 -511.994 154.011 0 0 380.005z"
           id="path151" /></glyph><glyph
         unicode="ф"
         horiz-adv-x="835"
         id="glyph153"><path
           d="M341.794 519.189c-18.8995,5.08307 -38.9588,6.10651 -63.0096,6.20885 -168.935,0.170573 -231.945,-60.6216 -232.286,-269.539 -0.37526,-207.007 75.3932,-270.085 196.432,-270.324 45.9523,0.0341146 75.9049,10.8825 97.9088,22.8568l-0.204687 -200.969 153.823 -0.204687 0.409375 200.935c23.0273,-11.9742 52.9799,-23.1297 97.977,-23.0956 120.868,-0.341146 196.943,62.532 197.319,269.505 0.341146,208.952 -62.3614,269.983 -231.399,270.29 -24.0166,0.102344 -44.0078,-0.955208 -62.9072,-5.90182l0.204687 195.886 -153.891 0.341146 -0.37526 -195.988zm-65.7046 -407.805c-55.9479,0.238802 -82.8984,32.3406 -82.6596,140.177 0.170573,123.938 24.1531,145.976 85.184,145.806 25.9953,-0.102344 44.8948,-3.00208 62.9755,-9.00624l-0.37526 -239.996c0,-21.0487 -23.0614,-37.0143 -65.1247,-36.9802zm284.038 -0.37526c-41.108,0.0682291 -64.033,15.0445 -64.9882,36.0591l0.37526 240.985c19.0359,6.00416 37.0143,8.97213 63.0096,8.9039 61.0309,-0.170573 84.9794,-22.1745 84.8088,-146.113 -0.272916,-108.041 -26.3023,-140.04 -83.2054,-139.836z"
           id="path155" /></glyph><glyph
         unicode="E"
         horiz-adv-x="614"
         id="glyph157"><path
           d="M94.9988 697.005l0 -697.005 491.001 0 0 86.9953 -390.009 0 0 239.005 277.012 0 0 86.0091 -277.012 0 0 197.982 390.009 0 0 87.0142 -491.001 0z"
           id="path159" /></glyph><glyph
         unicode="g"
         horiz-adv-x="595"
         id="glyph161"><path
           d="M375.993 154.001c0,-22.0001 -37.0019,-35.9967 -81.9884,-35.9967 -72.0124,0 -93.0074,28.9984 -93.0074,136.989 0,131.014 24.0105,149.013 97.0091,149.013 22.9863,0 53.9951,-4.00174 77.9866,-13.9966l0 -236.008zm0 -136.002c0,-74.0038 -48.9882,-94.9988 -132.001,-94.9988 -52.9899,0 -103.988,9.00867 -156.997,23.0053l-26.9881 -119.995c46.9968,-17.0122 121.001,-30.0036 187.001,-30.0036 161.985,0 282.986,39.9985 282.986,244.998l0 448.992c-55.9865,20.9949 -151.99,35.9967 -231.987,35.9967 -174.01,0 -252.015,-64.9952 -252.015,-273.996 0,-206.991 74.0038,-262.996 206.005,-262.996 50.0123,0 94.0126,13.9966 123.997,28.9984z"
           id="path163" /></glyph><glyph
         unicode="а"
         horiz-adv-x="568"
         id="glyph165"><path
           d="M507.249 327.807c-0.170573,151.946 -72.3229,198.888 -225.293,198.581 -75.9049,-0.170573 -160.918,-12.3836 -219.834,-27.2916l24.1872 -122.062c43.0185,13.1341 99.9215,21.1851 158.871,21.2875 100.058,0.204687 116.024,-16.8526 116.092,-87.8109 -38.9247,7.94869 -77.9176,12.9294 -115.989,12.8271 -121.857,-0.238802 -199.843,-23.4026 -199.57,-167.298 0.238802,-133.9 50.2507,-169.925 219.254,-169.583 74.9497,0.136458 173.95,15.3174 242.93,40.4599l-0.648177 300.89zm-145.635 -213.182c-23.8802,-9.1427 -55.8455,-14.1575 -84.8429,-14.1917 -60.0075,0 -73.0052,8.83567 -73.0734,60.8263 -0.0682291,51.0354 19.8547,57.0395 74.9156,57.176 30.8737,0.0682291 59.871,-0.818749 82.9666,-6.92526l0.0341146 -96.8853z"
           id="path167" /></glyph><glyph
         unicode="B"
         horiz-adv-x="700"
         id="glyph169"><path
           d="M195.991 86.0091l0 241.982 243.006 0c60.0072,0 86.9953,-49.9934 86.9953,-124.983 0,-72.0124 -22.0001,-116.999 -82.9935,-116.999l-247.008 0zm0 524.987l239.005 0c59.002,0 75.9952,-34.9916 75.9952,-97.9953 0,-56.9917 -17.9984,-101.997 -75.9952,-101.997l-239.005 0 0 199.992zm281.014 -239.005c123.997,11.0001 140.99,72.0124 140.99,159.008 0,94.9988 -28.9984,166.006 -167.997,166.006l-354.998 0 0 -697.005 363.002 0c111.992,0 177.006,60.9934 177.006,193.999 0,100.006 -26.0019,171.999 -158.003,177.992l0 0z"
           id="path171" /></glyph><glyph
         unicode="u"
         horiz-adv-x="596"
         id="glyph173"><path
           d="M379.009 132.001c-27.007,-5.99313 -49.0072,-9.99488 -74.0038,-9.99488 -75.009,0 -90.997,26.0019 -90.997,117.985l0 272.005 -152.009 0 0 -283.991c0,-182.999 68.0107,-243.006 210.006,-243.006 90.997,0 193.999,23.0053 258.994,46.0106l0 480.987 -151.99 0 0 -379.995z"
           id="path175" /></glyph><glyph
         unicode="d"
         horiz-adv-x="595"
         id="glyph177"><path
           d="M375.993 126.994c-18.9846,-7.98452 -51.9848,-11.9863 -77.9866,-11.9863 -72.9987,0 -97.0091,20.9949 -97.0091,144.992 0,108.995 23.0053,141.009 94.9988,141.009 45.0054,0 79.997,-17.0122 79.997,-39.0123l0 -235.003zm154.001 595.008l-154.001 0 0 -218.01c-28.9984,12.0052 -62.9848,22.0001 -112.997,22.0001 -126.994,0 -217.005,-61.9986 -217.005,-267.984 0,-210.006 78.0056,-272.005 252.015,-272.005 79.997,0 176.001,15.0018 231.987,35.9967l0 700.002z"
           id="path179" /></glyph><glyph
         unicode="о"
         horiz-adv-x="589"
         id="glyph181"><path
           d="M293.76 -16.5456c166.991,-1.43281 250.537,60.8263 252.311,270.733 1.91042,208.952 -81.6702,267.697 -247.603,269.164 -162.931,1.22812 -248.422,-55.9138 -250.196,-264.763 -1.8763,-210.043 80.5104,-273.769 245.488,-275.134zm3.78672 419.848c72.8687,-0.648177 93.7127,-16.7502 92.621,-150.82 -1.15989,-128.953 -22.3791,-149.626 -95.3502,-149.081 -72.0158,0.648177 -92.7916,21.731 -91.6317,150.718 1.12578,134.07 22.3109,149.831 94.3609,149.183z"
           id="path183" /></glyph><glyph
         unicode=" "
         horiz-adv-x="256"
         id="glyph185" /><glyph
         unicode="P"
         horiz-adv-x="683"
         id="glyph187"><path
           d="M243.006 349.998l0 208.998 174 0c43.9995,0 67.9976,-31.0014 67.9976,-106.992 0,-73.0027 -27.9945,-102.006 -69.9958,-102.006l-172.002 0zm0 -349.998l0 216.991 228.999 0c130,0 189.986,109.009 189.986,235.013 0,142.999 -47.996,245.004 -190.995,245.004l-388.993 0 0 -697.008 161.002 0z"
           id="path189" /></glyph><glyph
         unicode="r"
         horiz-adv-x="397"
         id="glyph191"><path
           d="M66.0003 0l154.001 0 0 335.995c0,34.0053 48.002,52.0037 103.002,52.0037 24.9967,0 52.0037,-1.99139 71.9935,-8.00349l0 143.001c-17.9984,2.01036 -35.9967,2.99657 -50.9985,2.99657 -74.0038,0 -107.004,-23.9915 -123.997,-53.9951l0 39.9985 -154.001 0 0 -511.996z"
           id="path193" /></glyph><glyph
         unicode="a"
         horiz-adv-x="569"
         id="glyph195"><path
           d="M507.994 327.005c0,151.99 -71.9935,198.987 -224.989,198.987 -76.0142,0 -160.999,-11.9863 -220.001,-26.9881l23.9915 -122.006c43.014,13.0104 100.006,24.0105 159.008,24.0105 100.006,0 115.994,-20.0087 115.994,-91.016 -38.9933,8.00349 -78.0056,13.0104 -115.994,13.0104 -122.006,0 -200.011,-23.0053 -200.011,-167.011 0,-133.992 50.0123,-169.989 219.015,-169.989 74.99,0 173.991,15.0018 242.987,39.9985l0 301.003zm-304 -166.006c0,50.9985 20.0087,56.9917 75.009,56.9917 30.9898,0 59.9882,-0.986212 82.9935,-6.99831l0 -96.9902c-23.9915,-9.00867 -56.0055,-13.9966 -85.0039,-13.9966 -59.9882,0 -72.9987,8.9897 -72.9987,60.9934z"
           id="path197" /></glyph><glyph
         unicode="л"
         horiz-adv-x="594"
         id="glyph199"><path
           d="M377.273 378.672l-1.29635 -379.934 153.038 -0.648177 1.70573 511.957 -415.925 1.60338c-11.5989,-173.984 -42.3021,-364.923 -85.7299,-511.787l160.918 -0.579947c33.364,107.938 59.9052,248.866 69.3549,379.729l117.934 -0.341146z"
           id="path201" /></glyph><glyph
         unicode="o"
         horiz-adv-x="590"
         id="glyph203"><path
           d="M294.005 -13.9966c166.992,0 249.986,63.0038 249.986,272.991 0,209.001 -83.9987,266.998 -249.986,266.998 -163.009,0 -248.013,-57.9969 -248.013,-266.998 0,-209.987 83.0125,-272.991 248.013,-272.991zm0 419.994c72.9987,0 93.9936,-15.988 93.9936,-149.999 0,-129.004 -20.9949,-149.999 -93.9936,-149.999 -72.0124,0 -93.0074,20.9949 -93.0074,149.999 0,134.011 20.9949,149.999 93.0074,149.999z"
           id="path205" /></glyph><glyph
         unicode="њ"
         horiz-adv-x="892"
         id="glyph207"><path
           d="M497.998 313.993l0 193.005 -94.0047 0 0 -193.005 -236.996 0 0 193.005 -94.0047 0 0 -506.998 94.0047 0 0 238.006 236.996 0 0 -238.006 281.004 0c107.009,0 155.995,45.9925 155.995,159.999 0,103.005 -48.9866,153.993 -155.995,153.993l-187 0zm0 -237.988l0 162.001 171.001 0c47.9945,0 71.0084,-20.0021 71.0084,-78.9987 0,-60.0064 -21.012,-83.0026 -70.0163,-83.0026l-171.993 0z"
           id="path209" /></glyph><glyph
         unicode="и"
         horiz-adv-x="612"
         id="glyph211"><path
           d="M392.829 0.614062l153.038 0.37526 -0.955208 510.763 -152.97 -0.204687c-47.8286,-89.9942 -117.559,-212.09 -173.473,-280.285l-0.37526 279.978 -153.004 -0.204687 0.921093 -510.9 153.004 0.170573c59.8028,78.1223 121.618,171.289 173.473,268.345l0.341146 -268.038z"
           id="path213" /></glyph><glyph
         unicode="l"
         horiz-adv-x="291"
         id="glyph215"><path
           d="M220.001 722.002l-154.001 0 0 -577.01c0,-73.9849 16.9932,-129.99 49.9934,-169.989l138.013 49.9934c-24.0105,37.0019 -34.0053,75.009 -34.0053,123.997l0 573.008z"
           id="path217" /></glyph><glyph
         unicode="ц"
         horiz-adv-x="608"
         id="glyph219"><path
           d="M497.998 83.9948l0 423.003 -94.0047 0 0 -423.003 -236.996 0 0 423.003 -94.0047 0 0 -506.998 431.011 0 0 -135.001 74.0026 0 22.9962 218.996 -103.005 0z"
           id="path221" /></glyph><glyph
         unicode="е"
         horiz-adv-x="555"
         id="glyph223"><path
           d="M458.943 131.068c-38.0718,-10.1661 -105.039,-17.0573 -141.917,-17.1255 -74.0968,0.0341146 -111.077,15.1127 -113.09,97.0218l312.933 -0.0682291c13.987,263.023 -59.8369,314.98 -229.898,315.048 -146.966,-0.102344 -240.985,-60.9968 -240.985,-267.049 0,-209.873 106.983,-272.916 250.878,-272.848 58.1312,0.0682291 134.07,10.9167 184.935,28.0081l-22.8568 117.013zm-160.952 278.955c59.9393,-0.0682291 83.0007,-15.1127 84.9111,-86.1734l-178.044 0.136458c9.21093,64.92 29.0315,86.0028 93.1327,86.0369z"
           id="path225" /></glyph><glyph
         unicode="i"
         horiz-adv-x="283"
         id="glyph227"><path
           d="M220.001 511.996l-154.001 0 0 -511.996 154.001 0 0 511.996zm-77.0004 222.011c-66.0003,0 -86.9953,-10.0138 -86.9953,-72.9987 0,-69.0159 20.9949,-81.0021 86.9953,-81.0021 64.9952,0 86.9953,11.9863 86.9953,81.0021 0,62.9848 -22.0001,72.9987 -86.9953,72.9987l0 0z"
           id="path229" /></glyph><glyph
         unicode="z"
         horiz-adv-x="497"
         id="glyph231"><path
           d="M27.007 511.996l0 -132.001 222.998 0c-41.0037,-72.9987 -156.011,-242.987 -240.01,-354.998l0 -24.9967 463.008 0 0 132.001 -225.994 0c63.99,85.9901 173.991,247.994 238,354.998l0 24.9967 -458.001 0z"
           id="path233" /></glyph><glyph
         unicode="в"
         horiz-adv-x="565"
         id="glyph235"><path
           d="M166.997 78.0065l0 153.993 173.003 0c47.9945,0 69.0064,-29.0022 69.0064,-81.9928 0,-51.0063 -17.008,-72.0006 -66.0123,-72.0006l-175.997 0zm0 350.985l168.999 0c47.9945,0 62.0084,-14.9883 62.0084,-58.9965 0,-39.9865 -14.0139,-65.0025 -62.0084,-65.0025l-168.999 0 0 123.999zm222.008 -156.987c92.0027,6.99809 108.001,49.9965 108.001,113.989 0,69.0064 -24.9982,121.005 -138.013,121.005l-286 0 0 -506.998 293.016 0c90.9928,0 143.983,44.0082 143.983,141.007 0,72.0006 -24.9982,126.993 -120.987,130.997l0 0z"
           id="path237" /></glyph><glyph
         unicode="у"
         horiz-adv-x="511"
         id="glyph239"><path
           d="M165.149 -24.1872c-24.6648,-55.0268 -55.4362,-119.162 -83.2054,-167.298l168.935 0.818749c24.8013,49.2273 49.5002,107.188 72.1864,161.43 75.1544,176.236 142.087,365.606 192.133,542.899l-152.936 -0.852864c-27.4281,-117.081 -66.694,-239.28 -107.051,-356.429 -32.6817,121.721 -72.357,248.525 -113.909,355.337l-155.051 -0.886978c60.9627,-158.564 127.861,-354.177 178.897,-535.019z"
           id="path241" /></glyph></font>
</defs>
</svg>
